banzay-kids.ru
Remember me
Password recovery

People Trial adult chat sites

I knew exactly what they were thinking, as I spoke about my newfound love interest, and him bussing the file that he had a kid.
In this article, we'll look at some key legal issues in these kinds of cases, examine the uneven legal landscape of court decisions on civil liability for suicide, and explain why it’s important to have an attorney’s expertise on your side.

Datingmp4 com

Rated 4.81/5 based on 952 customer reviews
dating with hpv genital warts Add to favorites

Online today

I quite liked that,” she added as she prepared to leave with Kishi and two friends for another date. https://stackoverflow.com/questions/25831944/unreadable-files https://stackoverflow.com/questions/4818681/ffmpeg-conversion-error https://stackoverflow.com/questions/22307229/ffmpeg-mp4-file-is-not-valid At this point I'm out of ideas to figure out what's wrong, let alone how to fix the problem. Hvor du kan være dig selv, er tryg, rolig og glad og hvor forholdet er stabilt og får dig til at blomstre. I ulykkelige, lidelsesfulde, ustabile og utrygge forhold og det, der ligner, føler man ofte en dyb angst, man oplever svigt, nøjes fordi man er bange for at miste, sætter ham op på en pediestal, er usikker og bange, bliver ‘ghostet’ og forladt eller endda bliver kontrolleret og slået.Eller der er masser af drama, kampe, on/off-forhold, komplicerethed og en masse længsel og ulykkelighed, som slider dig op eller totalt overtager dit liv. 3.100 Input #0, mov,mp4,m4a,3gp,3g2,mj2, from '15_Shopping_VKV.mov': Metadata: major_brand : qt minor_version : 537199360 compatible_brands: qt creation_time : 2015-03-07 Duration: .71, start: 0.000000, bitrate: 78240 kb/s Stream #0:0(eng): Video: mjpeg (jpeg / 0x6765706A), yuvj422p(pc, bt470bg/bt709/bt709), 1920x1080 [SAR DAR 16:9], 78231 kb/s, 29.97 fps, 29.97 tbr, 30k tbn, 30k tbc (default) Metadata: creation_time : 2015-03-07 handler_name : Apple Alias Data Handler encoder : Photo - JPEG timecode : ;02 Stream #0:1(eng): Data: none (tmcd / 0x64636D74), 0 kb/s (default) Metadata: creation_time : 2015-03-07 handler_name : Apple Alias Data Handler timecode : ;02 File 'shoes.mov' already exists. [y/N] y No pixel format specified, yuvj422p for H.264 encoding chosen.Mister du altid ham du er glad for, når det bliver seriøst? Bliver du tit forelsket, men har aldrig en kæreste?Giver du ham ALT du har, men bliver alligevel forladt? Saboterer du dine forhold, er det altid kompliceret og ender du tit med et knust hjerte eller føler, du har mistet dig selv? En tung byrde at bære, men selvom det virker helt umuligt, kan du få et dejligt kærlighedsliv.

datingmp4 com-30datingmp4 com-56

Men det kan udløse en addiktiv adfærd og ødelægge dig på samme måde, og det kan give en rus og en nedtur på samme måde. Jeg så ikke den smukke sol eller jeg nød ikke cykelturen langs søerne. Et farligt forhold og en masse angstprægende forhold. Jeg er ikke længere i farlige eller usunde forhold. Når du har været kærlighedafhængig bliver du nødt til at have en periode uden dit drug. Du bliver nødt til at starte fra et sted, hvor du har selvkærlighed og kærlighedsselvværd. Jeg kan ærligt sige, at jeg har det rigtigt godt med at være alene. Uden mand at flirte med, uden mand at fylde tomheden ud med, uden mand til at give mig kærlighed.

Young people brought up in the digital era find face-to-face encounters daunting in ultra-polite Japan, while long work hours add still another hurdle.

These make konkatsu – active “marriage seeking activity” – often the only option.“I think I was able to find out more about their inner selves and not just judge them by their looks,” said Chiharu Tsukahara, a 28-year-old office worker.“In this event, personality matters.

And women have been subjected to hostile, lewd and harassing comments on popular dating apps, like Tinder and Ok Cupid, which have been created by largely male teams.

Female entrepreneurs have seen an opening, and several dating apps have been created by women -- for women.

Founded in 2001, we're the nation's largest speed dating service.

At our Lesbian Speed Dating Events, you'll meet up to a dozen other lesbian single professionals in your age group through a series of six minute "pre-dates" at a local upscale restaurant or bar.

[libx264 @ 0x7fbc9400a000] using SAR=1/1 [libx264 @ 0x7fbc9400a000] using cpu capabilities: MMX2 SSE2Fast SSSE3 SSE4.2 AVX FMA3 AVX2 LZCNT BMI2 [libx264 @ 0x7fbc9400a000] profile High 4:2:2, level 4.0, 4:2:2 8-bit [libx264 @ 0x7fbc9400a000] 264 - core 144 r2533 c8a773e - H.264/MPEG-4 AVC codec - Copyleft 2003-2015 - options: cabac=1 ref=3 deblock=1:0:0 analyse=0x3:0x113 me=hex subme=7 psy=1 psy_rd=1.00:0.00 mixed_ref=1 me_range=16 chroma_me=1 trellis=1 8x8dct=1 cqm=0 deadzone=21,11 fast_pskip=1 chroma_qp_offset=-2 threads=6 lookahead_threads=1 sliced_threads=0 nr=0 decimate=1 interlaced=0 bluray_compat=0 constrained_intra=0 bframes=3 b_pyramid=2 b_adapt=1 b_bias=0 direct=1 weightb=1 open_gop=0 weightp=2 keyint=250 keyint_min=25 scenecut=40 intra_refresh=0 rc_lookahead=40 rc=crf mbtree=1 crf=23.0 qcomp=0.60 qpmin=0 qpmax=69 qpstep=4 ip_ratio=1.40 aq=1:1.00 Output #0, mov, to 'shoes.mov': Metadata: major_brand : qt minor_version : 537199360 compatible_brands: qt encoder : Lavf Stream #0:0(eng): Video: h264 (libx264) (avc1 / 0x31637661), yuvj422p(pc), 1920x1080 [SAR 1:1 DAR 16:9], q=-1--1, 29.97 fps, 30k tbn, 29.97 tbc (default) Metadata: creation_time : 2015-03-07 handler_name : Apple Alias Data Handler timecode : ;02 encoder : Lavc libx264 Stream mapping: Stream #0:0 - h264 (libx264)) Press [q] to stop, [?

Use -pix_fmt yuv420p for compatibility with outdated media players.

Whether they'll be hugely successful remains to be seen.

Coffee Meets Bagel claims 100,000 to 500,000 users and has attracted .8 million in funding.